WinUAE script not working properly using ZIP unpack

Do you have trouble to set-up your emulator for a platform?, need a script?...ask here, we might be able to help you!
MrX_Cuci
Posts: 97
Joined: 09 Jul 2008, 01:10
Location: The Netherlands

WinUAE script not working properly using ZIP unpack

Unread post by MrX_Cuci » 22 Mar 2010, 13:55

If ZIP unpack is used the ECC script doesn't work properly. Looks to me it's not checking the right directory

Maybe there is another solutions since WinUAE supports paths from within ZIP files?

MrX_Cuci
Posts: 97
Joined: 09 Jul 2008, 01:10
Location: The Netherlands

Re: WinUAE script not working properly using ZIP unpack

Unread post by MrX_Cuci » 22 Mar 2010, 16:58

Command line parameter for WinUAE Amiga CD32: -cdimage=%ROM% -f \Configurations\CD32.uae

It doesn't completely work. Works with BIN / CUE that have the same name. (use cue ticked) Doesn't work if BIN and CUE file have different names. It should actually read the contents of the CUE and act accordingly. It works correctly with WinUAE however, but not with Emu Control center.

Using WinUAE.exe itself does work. Example Dennis.
winuae.exe -cdimage="Dennis.cue" -f \Configurations\CD32.uae

CUE contents:
FILE "Dennis (E) (Track 01).bin" BINARY
TRACK 01 MODE1/2352
INDEX 01 00:00:00
FILE "Dennis (E) (Track 02).bin" BINARY
TRACK 02 AUDIO
INDEX 00 00:00:00
INDEX 01 00:02:00
FILE "Dennis (E) (Track 03).bin" BINARY
TRACK 03 AUDIO
INDEX 01 00:00:00
FILE "Dennis (E) (Track 04).bin" BINARY
TRACK 04 AUDIO
INDEX 01 00:00:00
FILE "Dennis (E) (Track 05).bin" BINARY
TRACK 05 AUDIO
INDEX 01 00:00:00
FILE "Dennis (E) (Track 06).bin" BINARY
TRACK 06 AUDIO
INDEX 01 00:00:00
FILE "Dennis (E) (Track 07).bin" BINARY
TRACK 07 AUDIO
INDEX 01 00:00:00
FILE "Dennis (E) (Track 08).bin" BINARY
TRACK 08 AUDIO
INDEX 01 00:00:00
FILE "Dennis (E) (Track 09).bin" BINARY
TRACK 09 AUDIO
INDEX 01 00:00:00
FILE "Dennis (E) (Track 10).bin" BINARY
TRACK 10 AUDIO
INDEX 01 00:00:00
FILE "Dennis (E) (Track 11).bin" BINARY
TRACK 11 AUDIO
INDEX 01 00:00:00

Post Reply

Who is online

Users browsing this forum: No registered users and 1 guest